Contenu | Rechercher | Menus

Annonce

DVD, clés USB et t-shirts Ubuntu-fr disponibles sur la boutique En Vente Libre

Si vous avez des soucis pour rester connecté, déconnectez-vous puis reconnectez-vous depuis ce lien en cochant la case
Me connecter automatiquement lors de mes prochaines visites.

À propos de l'équipe du forum.

#1 Le 21/06/2021, à 19:20

Ashoka

[KDenlive] Fichier trop lourd en sortie

Bonsoir à tous,

J'ai un soucis avec la version de KDenlive, la 21. Les fichiers en sortie sont d'un poids incroyable !
Exemple; Une vidéo de 30 minutes avec une image fixe, juste un effet de fondu au noir en entrée et en sortie de la vidéo, une bande son de de bonne qualité au format mp3 (je réalise des podcasts mais je fais de la réclame sur You Tube, bien plus visible), et là j'ai un fichier en sortie de 1.3 Go minimum !!!!!!! Quand je fais la même manip avec l'appimage KDenlive 18.04, les mêmes réglages, tout pareil, j'ai un fichier en sortie d'environ 300 Mo...
Alors j'ai essayé avec Shotcut, pareil, 1.3 Go le fichier...
Alors je suis allé chercher ma vieille appimage de KDenlive pour continuer mes montages lights, mais si quelqu'un a un tuyau, ce serait bien pratique.

Edit1: C'est comme s'il n'y avait pas de compresseur. Je suis en train de fair eun test avec l'appimage KDenlive 21.04, pareil, plus d'1 Go le fichier en sortie !

Et mille mercis pour ce forum que je parcours depuis des années et où j'ai toujours trouvé toutes les réponses à mes questions, une vraie mine d'or !

Dernière modification par Ashoka (Le 22/06/2021, à 10:18)


Intel Core I3 / Ubuntu 20.04 LTS

Hors ligne

#2 Le 21/06/2021, à 20:33

Vobul

Re : [KDenlive] Fichier trop lourd en sortie

Salut,

Commence par montrer le retour de

ffmpeg -i /chemin/vers/ton/fichier.mp4

pour les deux versions que tu as. Des captures d'écran des settings d'export seront aussi intéressantes.


Vobul

Utilisez le retour utilisable de commandes !!!
J'aime la langue française, mais je parle franglais, deal with it.

Hors ligne

#3 Le 21/06/2021, à 20:59

Ashoka

Re : [KDenlive] Fichier trop lourd en sortie

Bonsoir Vobul,

Merci pour ton aide big_smile

Voici ce que revoie la commande demandée:

Pour un fichier en sortie de 2,3 Go réalisé par la version 21.04:

ffmpeg version 4.2.4-1ubuntu0.1 Copyright (c) 2000-2020 the FFmpeg developers
  built with gcc 9 (Ubuntu 9.3.0-10ubuntu2)
  configuration: --prefix=/usr --extra-version=1ubuntu0.1 --toolchain=hardened --libdir=/usr/lib/x86_64-linux-gnu --incdir=/usr/include/x86_64-linux-gnu --arch=amd64 --enable-gpl --disable-stripping --enable-avresample --disable-filter=resample --enable-avisynth --enable-gnutls --enable-ladspa --enable-libaom --enable-libass --enable-libbluray --enable-libbs2b --enable-libcaca --enable-libcdio --enable-libcodec2 --enable-libflite --enable-libfontconfig --enable-libfreetype --enable-libfribidi --enable-libgme --enable-libgsm --enable-libjack --enable-libmp3lame --enable-libmysofa --enable-libopenjpeg --enable-libopenmpt --enable-libopus --enable-libpulse --enable-librsvg --enable-librubberband --enable-libshine --enable-libsnappy --enable-libsoxr --enable-libspeex --enable-libssh --enable-libtheora --enable-libtwolame --enable-libvidstab --enable-libvorbis --enable-libvpx --enable-libwavpack --enable-libwebp --enable-libx265 --enable-libxml2 --enable-libxvid --enable-libzmq --enable-libzvbi --enable-lv2 --enable-omx --enable-openal --enable-opencl --enable-opengl --enable-sdl2 --enable-libdc1394 --enable-libdrm --enable-libiec61883 --enable-nvenc --enable-chromaprint --enable-frei0r --enable-libx264 --enable-shared
  libavutil      56. 31.100 / 56. 31.100
  libavcodec     58. 54.100 / 58. 54.100
  libavformat    58. 29.100 / 58. 29.100
  libavdevice    58.  8.100 / 58.  8.100
  libavfilter     7. 57.100 /  7. 57.100
  libavresample   4.  0.  0 /  4.  0.  0
  libswscale      5.  5.100 /  5.  5.100
  libswresample   3.  5.100 /  3.  5.100
  libpostproc    55.  5.100 / 55.  5.100


Pour le même montage mais fichier de 300 Mo en sortie réalisé avec l'appimage 18.04:

ffmpeg version 4.2.4-1ubuntu0.1 Copyright (c) 2000-2020 the FFmpeg developers
  built with gcc 9 (Ubuntu 9.3.0-10ubuntu2)
  configuration: --prefix=/usr --extra-version=1ubuntu0.1 --toolchain=hardened --libdir=/usr/lib/x86_64-linux-gnu --incdir=/usr/include/x86_64-linux-gnu --arch=amd64 --enable-gpl --disable-stripping --enable-avresample --disable-filter=resample --enable-avisynth --enable-gnutls --enable-ladspa --enable-libaom --enable-libass --enable-libbluray --enable-libbs2b --enable-libcaca --enable-libcdio --enable-libcodec2 --enable-libflite --enable-libfontconfig --enable-libfreetype --enable-libfribidi --enable-libgme --enable-libgsm --enable-libjack --enable-libmp3lame --enable-libmysofa --enable-libopenjpeg --enable-libopenmpt --enable-libopus --enable-libpulse --enable-librsvg --enable-librubberband --enable-libshine --enable-libsnappy --enable-libsoxr --enable-libspeex --enable-libssh --enable-libtheora --enable-libtwolame --enable-libvidstab --enable-libvorbis --enable-libvpx --enable-libwavpack --enable-libwebp --enable-libx265 --enable-libxml2 --enable-libxvid --enable-libzmq --enable-libzvbi --enable-lv2 --enable-omx --enable-openal --enable-opencl --enable-opengl --enable-sdl2 --enable-libdc1394 --enable-libdrm --enable-libiec61883 --enable-nvenc --enable-chromaprint --enable-frei0r --enable-libx264 --enable-shared
  libavutil      56. 31.100 / 56. 31.100
  libavcodec     58. 54.100 / 58. 54.100
  libavformat    58. 29.100 / 58. 29.100
  libavdevice    58.  8.100 / 58.  8.100
  libavfilter     7. 57.100 /  7. 57.100
  libavresample   4.  0.  0 /  4.  0.  0
  libswscale      5.  5.100 /  5.  5.100
  libswresample   3.  5.100 /  3.  5.100
  libpostproc    55.  5.100 / 55.  5.100


Pour les settings d'export c'est du H264/AAC classique, en qualité moyenne pour du HD 720 24 fps


Intel Core I3 / Ubuntu 20.04 LTS

Hors ligne

#4 Le 21/06/2021, à 23:18

Vobul

Re : [KDenlive] Fichier trop lourd en sortie

Non mais là je sais pas ce que t'as fait, mais ce n'est pas ce que je t'ai demandé. Regarde le lien dans ma signature et réessaye. Est-ce qu'il faut vraiment que je te dise qu'il faut remplacer "/chemin/vers/ton/fichier.mp4" vers le VRAI chemin du fichier exporté ?????

Voir : https://forum.ubuntu-fr.org/viewtopic.p … #p22444947


Vobul

Utilisez le retour utilisable de commandes !!!
J'aime la langue française, mais je parle franglais, deal with it.

Hors ligne

#5 Le 22/06/2021, à 10:07

Ashoka

Re : [KDenlive] Fichier trop lourd en sortie

Bonjour Vobul,

ouèp, je me disais bien que ça se ressemblait beaucoup les deux commandes... J'ai commis une erreur dans la casse en tapant le chemin, c'est susceptible une console ;D
Donc je te renvoie le tout :

_ Fichier 1,3Go, avec KDenlive 21.04:

ffmpeg -i /home/bruno/Vidéos/AG_7_16_III.mp4
ffmpeg version 4.2.4-1ubuntu0.1 Copyright (c) 2000-2020 the FFmpeg developers
  built with gcc 9 (Ubuntu 9.3.0-10ubuntu2)
  configuration: --prefix=/usr --extra-version=1ubuntu0.1 --toolchain=hardened --libdir=/usr/lib/x86_64-linux-gnu --incdir=/usr/include/x86_64-linux-gnu --arch=amd64 --enable-gpl --disable-stripping --enable-avresample --disable-filter=resample --enable-avisynth --enable-gnutls --enable-ladspa --enable-libaom --enable-libass --enable-libbluray --enable-libbs2b --enable-libcaca --enable-libcdio --enable-libcodec2 --enable-libflite --enable-libfontconfig --enable-libfreetype --enable-libfribidi --enable-libgme --enable-libgsm --enable-libjack --enable-libmp3lame --enable-libmysofa --enable-libopenjpeg --enable-libopenmpt --enable-libopus --enable-libpulse --enable-librsvg --enable-librubberband --enable-libshine --enable-libsnappy --enable-libsoxr --enable-libspeex --enable-libssh --enable-libtheora --enable-libtwolame --enable-libvidstab --enable-libvorbis --enable-libvpx --enable-libwavpack --enable-libwebp --enable-libx265 --enable-libxml2 --enable-libxvid --enable-libzmq --enable-libzvbi --enable-lv2 --enable-omx --enable-openal --enable-opencl --enable-opengl --enable-sdl2 --enable-libdc1394 --enable-libdrm --enable-libiec61883 --enable-nvenc --enable-chromaprint --enable-frei0r --enable-libx264 --enable-shared
  libavutil      56. 31.100 / 56. 31.100
  libavcodec     58. 54.100 / 58. 54.100
  libavformat    58. 29.100 / 58. 29.100
  libavdevice    58.  8.100 / 58.  8.100
  libavfilter     7. 57.100 /  7. 57.100
  libavresample   4.  0.  0 /  4.  0.  0
  libswscale      5.  5.100 /  5.  5.100
  libswresample   3.  5.100 /  3.  5.100
  libpostproc    55.  5.100 / 55.  5.100
Input #0, mov,mp4,m4a,3gp,3g2,mj2, from '/home/bruno/Vidéos/AG_7_16_III.mp4':
  Metadata:
    major_brand     : isom
    minor_version   : 512
    compatible_brands: isomiso2avc1mp41
    encoder         : Lavf58.29.100
  Duration: 00:35:56.48, start: 0.000000, bitrate: 4809 kb/s
    Stream #0:0(und): Video: h264 (High) (avc1 / 0x31637661), yuv420p(tv, bt709), 1280x720 [SAR 1:1 DAR 16:9], 4635 kb/s, 24 fps, 24 tbr, 12288 tbn, 48 tbc (default)
    Metadata:
      handler_name    : VideoHandler
    Stream #0:1(und): Audio: aac (LC) (mp4a / 0x6134706D), 48000 Hz, stereo, fltp, 169 kb/s (default)
    Metadata:
      handler_name    : SoundHandler

_ Fichier de 300Mo avec appimage KDenlive 18.04

ffmpeg -i /home/bruno/Vidéos/Ashtavakra_Gita_-_7_16_II.mp4
ffmpeg version 4.2.4-1ubuntu0.1 Copyright (c) 2000-2020 the FFmpeg developers
  built with gcc 9 (Ubuntu 9.3.0-10ubuntu2)
  configuration: --prefix=/usr --extra-version=1ubuntu0.1 --toolchain=hardened --libdir=/usr/lib/x86_64-linux-gnu --incdir=/usr/include/x86_64-linux-gnu --arch=amd64 --enable-gpl --disable-stripping --enable-avresample --disable-filter=resample --enable-avisynth --enable-gnutls --enable-ladspa --enable-libaom --enable-libass --enable-libbluray --enable-libbs2b --enable-libcaca --enable-libcdio --enable-libcodec2 --enable-libflite --enable-libfontconfig --enable-libfreetype --enable-libfribidi --enable-libgme --enable-libgsm --enable-libjack --enable-libmp3lame --enable-libmysofa --enable-libopenjpeg --enable-libopenmpt --enable-libopus --enable-libpulse --enable-librsvg --enable-librubberband --enable-libshine --enable-libsnappy --enable-libsoxr --enable-libspeex --enable-libssh --enable-libtheora --enable-libtwolame --enable-libvidstab --enable-libvorbis --enable-libvpx --enable-libwavpack --enable-libwebp --enable-libx265 --enable-libxml2 --enable-libxvid --enable-libzmq --enable-libzvbi --enable-lv2 --enable-omx --enable-openal --enable-opencl --enable-opengl --enable-sdl2 --enable-libdc1394 --enable-libdrm --enable-libiec61883 --enable-nvenc --enable-chromaprint --enable-frei0r --enable-libx264 --enable-shared
  libavutil      56. 31.100 / 56. 31.100
  libavcodec     58. 54.100 / 58. 54.100
  libavformat    58. 29.100 / 58. 29.100
  libavdevice    58.  8.100 / 58.  8.100
  libavfilter     7. 57.100 /  7. 57.100
  libavresample   4.  0.  0 /  4.  0.  0
  libswscale      5.  5.100 /  5.  5.100
  libswresample   3.  5.100 /  3.  5.100
  libpostproc    55.  5.100 / 55.  5.100
Input #0, mov,mp4,m4a,3gp,3g2,mj2, from '/home/bruno/Vidéos/Ashtavakra_Gita_-_7_16_II.mp4':
  Metadata:
    major_brand     : isom
    minor_version   : 512
    compatible_brands: isomiso2avc1mp41
    encoder         : Lavf57.71.100
  Duration: 00:35:56.46, start: 0.000000, bitrate: 1182 kb/s
    Stream #0:0(und): Video: h264 (High) (avc1 / 0x31637661), yuv420p(tv, bt709/unknown/bt709), 1280x720 [SAR 1:1 DAR 16:9], 985 kb/s, 23.98 fps, 23.98 tbr, 24k tbn, 47.95 tbc (default)
    Metadata:
      handler_name    : VideoHandler
    Stream #0:1(und): Audio: aac (LC) (mp4a / 0x6134706D), 48000 Hz, stereo, fltp, 191 kb/s (default)
    Metadata:
      handler_name    : SoundHandler

C'est mieux là non ?


Intel Core I3 / Ubuntu 20.04 LTS

Hors ligne

#6 Le 22/06/2021, à 10:40

berserk

Re : [KDenlive] Fichier trop lourd en sortie

Bonjour
Tu peux régler la qualité (et donc le poids de la vidéo) dans la fenêtre de rendu avant de lancer l'encodage :

Capture-du-2021-06-22-10-37-46.png

Hors ligne

#7 Le 22/06/2021, à 10:53

Ashoka

Re : [KDenlive] Fichier trop lourd en sortie

Bonjour Bersek,

Merci pour ton message, il m'a permit de trouver une hébergeur d'images (20 ans que je ne pratique plus les fofos moi). J'en profite pour poster les settings d'export que m'avait demandé Vobul.

Bref, d'accord, mais j'ai une super carte son et un très bon micro, ce n'est pas pour dégrader le son en sortie.
Et pourquoi je n'ai pas besoin de dégrader avec l'appimage 18.04 et que je devrais le faire avec la 21.04 ????
J'ai surement du rater un paramétrage quelque part, mais là je sèche...

Capture-d-cran-de-2021-06-21-20-49-00.png


Intel Core I3 / Ubuntu 20.04 LTS

Hors ligne

#8 Le 22/06/2021, à 11:02

Vobul

Re : [KDenlive] Fichier trop lourd en sortie

Bon ben voilà, on a la réponse à ma question : le bitrate video n'est pas le même pour les deux vidéos, ce qui explique le poids différent. Pas de magie noire.

bitrate: 4809 kb/s
bitrate: 1182 kb/s

Ce ne sont donc pas exactement les même réglages.


Vobul

Utilisez le retour utilisable de commandes !!!
J'aime la langue française, mais je parle franglais, deal with it.

Hors ligne

#9 Le 22/06/2021, à 11:13

Ashoka

Re : [KDenlive] Fichier trop lourd en sortie

ça se tient, d'autant plus que j'ai un rapport de 4 en sortie, le même que le bitrate...

Faut que je farfouille dans les réglages alors...


Intel Core I3 / Ubuntu 20.04 LTS

Hors ligne

#10 Le 22/06/2021, à 13:09

Ashoka

Re : [KDenlive] Fichier trop lourd en sortie

Après de nouveaux essais, et notamment un avec les deux versions de kdenlive lancées en même temps, avec les même réglages, j'obtiens toujours cette différence de bitrate qui sort d'on ne sait où.
J'ai donc trouvé une solution temporaire qui fonctionne bien: le webm

Voilà ce que me renvoie ta commande Vobul, le bitrate y est parfait:

ffmpeg -i /home/bruno/Vidéos/AG_KDE21.webm
ffmpeg version 4.2.4-1ubuntu0.1 Copyright (c) 2000-2020 the FFmpeg developers
  built with gcc 9 (Ubuntu 9.3.0-10ubuntu2)
  configuration: --prefix=/usr --extra-version=1ubuntu0.1 --toolchain=hardened --libdir=/usr/lib/x86_64-linux-gnu --incdir=/usr/include/x86_64-linux-gnu --arch=amd64 --enable-gpl --disable-stripping --enable-avresample --disable-filter=resample --enable-avisynth --enable-gnutls --enable-ladspa --enable-libaom --enable-libass --enable-libbluray --enable-libbs2b --enable-libcaca --enable-libcdio --enable-libcodec2 --enable-libflite --enable-libfontconfig --enable-libfreetype --enable-libfribidi --enable-libgme --enable-libgsm --enable-libjack --enable-libmp3lame --enable-libmysofa --enable-libopenjpeg --enable-libopenmpt --enable-libopus --enable-libpulse --enable-librsvg --enable-librubberband --enable-libshine --enable-libsnappy --enable-libsoxr --enable-libspeex --enable-libssh --enable-libtheora --enable-libtwolame --enable-libvidstab --enable-libvorbis --enable-libvpx --enable-libwavpack --enable-libwebp --enable-libx265 --enable-libxml2 --enable-libxvid --enable-libzmq --enable-libzvbi --enable-lv2 --enable-omx --enable-openal --enable-opencl --enable-opengl --enable-sdl2 --enable-libdc1394 --enable-libdrm --enable-libiec61883 --enable-nvenc --enable-chromaprint --enable-frei0r --enable-libx264 --enable-shared
  libavutil      56. 31.100 / 56. 31.100
  libavcodec     58. 54.100 / 58. 54.100
  libavformat    58. 29.100 / 58. 29.100
  libavdevice    58.  8.100 / 58.  8.100
  libavfilter     7. 57.100 /  7. 57.100
  libavresample   4.  0.  0 /  4.  0.  0
  libswscale      5.  5.100 /  5.  5.100
  libswresample   3.  5.100 /  3.  5.100
  libpostproc    55.  5.100 / 55.  5.100
Input #0, matroska,webm, from '/home/bruno/Vidéos/AG_KDE21.webm':
  Metadata:
    ENCODER         : Lavf58.29.100
  Duration: 00:35:56.46, start: 0.000000, bitrate: 832 kb/s
    Stream #0:0: Video: vp8, yuv420p(bt709, progressive), 1280x720, SAR 1:1 DAR 16:9, 24 fps, 24 tbr, 1k tbn, 1k tbc (default)
    Metadata:
      DURATION        : 00:35:56.462000000
    Stream #0:1: Audio: vorbis, 48000 Hz, stereo, fltp (default)
    Metadata:
      DURATION        : 00:35:56.409000000

Merci pour vos réponses, bien que je n'ai pas trouvé la solution par le réglage de ce bitrate, le webm format fera largement l'affaire pour mon utilisation. Ceci dit si quelqu'un a la solution ou une idée je suis preneur.


Intel Core I3 / Ubuntu 20.04 LTS

Hors ligne

#11 Le 22/06/2021, à 14:05

Vobul

Re : [KDenlive] Fichier trop lourd en sortie

Ben tu peux réencoder le fichier de sortie avec ffmpeg et mettre "b:v 3M" pour limiter le bitrate. Comme ça tu peux garder le codec/container video de ton choix.


Vobul

Utilisez le retour utilisable de commandes !!!
J'aime la langue française, mais je parle franglais, deal with it.

Hors ligne